View Single Post
Old 05-10-2011, 11:45 AM   #1 (permalink)
iladu
 
iladu's Avatar
 
Status: Media Poster
Join Date: Aug 2010
Posts: 4
Thanked: 4 times
Thanked: 1 in this post


Raw WWE.Monday.Night.Raw.9th.May.2011.PDTV.x264-Sir.Paul

WWE.Monday.Night.Raw.9th.May.2011.PDTV.x264-Sir.Paul



Code:
Format : AVI
Format/Info : Audio Video Interleave
File size : 882 MiB
Duration : 1h 34mn
Overall bit rate : 1 307 Kbps
Writing application : Lavf51.12.1
Video
ID : 0
Format : MPEG-4 Visual
Format profile : Simple@L1
Format settings, BVOP : No
Format settings, QPel : No
Format settings, GMC : No warppoints
Format settings, Matrix : Default (H.263)
Codec ID : DX50
Codec ID/Hint : DivX 5
Duration : 1h 34mn
Bit rate : 1 166 Kbps
Width : 624 pixels
Height : 352 pixels
Display aspect ratio : 16:9
Frame rate : 29.970 fps
Color space : YUV
Chroma subsampling : 4:2:0
Bit depth : 8 bits
Scan type : Progressive
Bits/(Pixel*Frame) : 0.177
Stream size : 787 MiB (89%)
Writing library : Lavc51.40.4
Audio
ID : 1
Format : MPEG Audio
Format version : Version 1
Format profile : Layer 3
Mode : Joint stereo
Mode extension : MS Stereo
Codec ID : 55
Codec ID/Hint : MP3
Duration : 1h 34mn
Bit rate mode : Constant
Bit rate : 128 Kbps
Channel(s) : 2 channels
Sampling rate : 48.0 KHz
Stream size : 86.4 MiB (10%)
Alignment : Aligned on interleaves
Interleave, duration : 24 ms (0.72 video frame)
FileSonic
Code:
http://www.filesonic.com/file/960335021/WWE.Raw.05.09.2011.HDTV.XviD-XS.avi
FileServe
Code:
http://www.fileserve.com/file/grCRFtZ
iladu is offline  
Say 'Thank You!' for this post.
Reply With Quote
Who Said Thanks:
htrentavius (11-21-2012)
Sponsored Links